Jump to content

mega.nz 【Shining Force III All Scenarios + Premium Disc】【English Patched】【NTSC-US-/NTSC-JP TNW】


Recommended Posts

11 hours ago, Ravenstorm said:

Wow , I'm getting a Star Ocean 2 vibe from this game.  The music and graphics are so similar.  That music is really good too.  It seems to play a lot like Fire Emblem.

I'm not sure about Saturn emus though.  I've tried in the past, but I had no luck.

Yeah it is alot like Fire Emblem

But it was kinda the Nr 1 for this genre in the west as Fire Emblem was unavailable in the west. Reason why the price for a real copy is so sureal.

No idea about Emulators for the Saturn they are all kinda shit. Reason i went for a real Saturn. But the only good one would be SSF. When you think that it is only made by one guy and outpeforms all the others Emulators kinda impressive.

 

  • Upvote 2
Link to post
Share on other sites
  • 6 months later...
On 6/23/2018 at 1:32 PM, sibarraz said:

This game appears in a bin, cue and iso, when I try to mount the cue it tells me that the cue didn't exist.

 

Do I have to do something else? as far as I know, it should only be a bin an a cue file

Use Mednefen (assuming you are using SSF or Yasaube) and just drag the cue file to the Mednefen .exe

  • Upvote 1
Link to post
Share on other sites
  • 3 weeks later...
  • 2 weeks later...
  • 2 months later...
  • 4 weeks later...
On 7/14/2017 at 4:52 PM, Yukiko said:

yukiko@nextgenroms.com

Password not work please ???

Edited by Vitor53
Link to post
Share on other sites
  • 2 weeks later...

I am on a mac btw - here is what my .m3u file looks like in TextMate 

SF3Track2.cue
SF3Track2.cue
SF3Track2.cue
SF3Track2.cue

I followed a guide that told me I needed to drag + drop the .cue files into TextEdit and delete everything but the file names (change .bin to .cue) - this process worked for another multidisc game on PS1 but  not this time.  OpenEmu throws an error "The emulator could not load ROM".

Thanks for any ideas/suggestions!

Link to post
Share on other sites

Is this format compatible with Mednafen?  When I drag the .cue to the Mednafen exe, I get an error saying no such file or directory.

 

Actually nevermind :)  I found Yaba Sanshiro works just great with the .iso!

Edited by SewerUrchin
Update
Link to post
Share on other sites
  • 3 weeks later...

I am sorry if I seem like a complete dumbass here, but I can't seem to get this to work using Mednafen. 

After un-zipping, I get three files for each game:  one iso file, one cue file, and one Track2.bin file.

Dragging the cue file to mednafen just results in an error:

Mednafen(1.21.3) Error

Error opening CD: Error opening rile
"C:\Users\..\Games\Sega Saturn\SF3.ISO": No such file or directory

 

I have a number of other Saturn roms, and they only have one cue file and a number of bin files.  None of them have iso files.  With the other games, I just drag the cue file to the Mednafen.exe and everything starts up fine.

Anyone know what I can do here?  And thank you in advance for all of your help!  Sorry if the solution is obvious but I just can't get it.

Link to post
Share on other sites
  • 3 weeks later...

I just got it to work with Mednafen. All you really need to do is rename the .iso and .bin file to the file names specified in the .cue file.

Basically, just do exactly what Youtuber Simply Austin does in this video:

 

Please login or register to see this link.

 

You just open the .cue file with Notepad. The file names specified by default in the .cue file for the .iso and .bin did not match the actual files names of the .iso and .bin files contained in the download. Just rename the files to match it should load right up.

The .cue file has this by default:

 

FILE "SF3.ISO" BINARY

TRACK 01 MODE1/2048

INDEX 01 00:00:00

FILE "SF3Track2.bin" BINARY

TRACK 02 AUDIO

PREGAP 00:02:00

INDEX 01 00:00:00

 

 

But just edit it to the following, for example, and just make sure the names of the actual .iso and .bin files match exactly:

 

FILE "Shining Force III - Scenario 3.ISO" BINARY

TRACK 01 MODE1/2048

INDEX 01 00:00:00

FILE "Shining Force III - Scenario 3 Track2.bin" BINARY

TRACK 02 AUDIO

PREGAP 00:02:00

INDEX 01 00:00:00

  • Upvote 2
Link to post
Share on other sites
  • 3 months later...
  • 2 months later...
  • 4 months later...
  • 2 weeks later...
On 3/10/2019 at 3:04 PM, nkcmo said:

I just got it to work with Mednafen. All you really need to do is rename the .iso and .bin file to the file names specified in the .cue file.

Basically, just do exactly what Youtuber Simply Austin does in this video:

 

Please login or register to see this link.

 

You just open the .cue file with Notepad. The file names specified by default in the .cue file for the .iso and .bin did not match the actual files names of the .iso and .bin files contained in the download. Just rename the files to match it should load right up.

The .cue file has this by default:

 

FILE "SF3.ISO" BINARY

TRACK 01 MODE1/2048

INDEX 01 00:00:00

FILE "SF3Track2.bin" BINARY

TRACK 02 AUDIO

PREGAP 00:02:00

INDEX 01 00:00:00

 

 

But just edit it to the following, for example, and just make sure the names of the actual .iso and .bin files match exactly:

 

FILE "Shining Force III - Scenario 3.ISO" BINARY

TRACK 01 MODE1/2048

INDEX 01 00:00:00

FILE "Shining Force III - Scenario 3 Track2.bin" BINARY

TRACK 02 AUDIO

PREGAP 00:02:00

INDEX 01 00:00:00

Thank-you so much for this! I just tested this out as well, and with your method it works fine, if anyone has a problem with this on Mednafen do this method it will work. Also Thank-you Yukiko for this gem!

Link to post
Share on other sites
  • 5 months later...
  • 8 months later...
  • 3 weeks later...

Join the conversation

You can post now and register later. If you have an account, sign in now to post with your account.

Guest
Reply to this topic...

×   Pasted as rich text.   Paste as plain text instead

  Only 75 emoji are allowed.

×   Your link has been automatically embedded.   Display as a link instead

×   Your previous content has been restored.   Clear editor

×   You cannot paste images directly. Upload or insert images from URL.

×
×
  • Create New...