Yukiko

mega.nz 【Shining Force III All Scenarios + Premium Disc】【English Patched】【NTSC-US-/NTSC-JP TNW】

Recommended Posts

Shining Force III

All Scenarios + Premium Disc English Patched

q13UbJX.jpg LiV8PfU.jpg ezJCcSn.jpg

 

Download: 

Please login or register to see this spoiler.

 

INFO:

You need WinRAR 5.21 / 7-Zip 15.12 or newer to extract the archive.

Packaged as RAR5

 

Password: [email protected]

Size: 695 MB compressed

Format: bin, .cue

Tested on: NTSC-JP Sega Saturn Model 2 with Pseudo Saturn Kai

  • Like 8
  • Upvote 9

Share this post


Link to post
Share on other sites
11 hours ago, Ravenstorm said:

Wow , I'm getting a Star Ocean 2 vibe from this game.  The music and graphics are so similar.  That music is really good too.  It seems to play a lot like Fire Emblem.

I'm not sure about Saturn emus though.  I've tried in the past, but I had no luck.

Yeah it is alot like Fire Emblem

But it was kinda the Nr 1 for this genre in the west as Fire Emblem was unavailable in the west. Reason why the price for a real copy is so sureal.

No idea about Emulators for the Saturn they are all kinda shit. Reason i went for a real Saturn. But the only good one would be SSF. When you think that it is only made by one guy and outpeforms all the others Emulators kinda impressive.

 

  • Upvote 2

Share this post


Link to post
Share on other sites
On 6/23/2018 at 1:32 PM, sibarraz said:

This game appears in a bin, cue and iso, when I try to mount the cue it tells me that the cue didn't exist.

 

Do I have to do something else? as far as I know, it should only be a bin an a cue file

Use Mednefen (assuming you are using SSF or Yasaube) and just drag the cue file to the Mednefen .exe

  • Upvote 1

Share this post


Link to post
Share on other sites
On 7/14/2017 at 8:52 PM, Yukiko said:

Password: [email protected]

 

Anyone else having issues getting this password to work? :-S

Edited by calaerial
Wrote in quote rather than body

Share this post


Link to post
Share on other sites

I figured out the problem, updating 7-zip made the password work for me.

Edited by slycode
figured out what I did wrong.
  • Upvote 1

Share this post


Link to post
Share on other sites
On 9/16/2018 at 5:35 PM, calaerial said:

Anyone else having issues getting this password to work? :-S

Try rewrite the password without copy & paste.

  • Upvote 1

Share this post


Link to post
Share on other sites
Posted (edited)
On 7/14/2017 at 4:52 PM, Yukiko said:

yukiko@nextgenroms.com

Password not work please ???

Edited by Vitor53

Share this post


Link to post
Share on other sites

Hey,  do I have to create a .m3u file to import shining force III premium?  My OpenEmu isn't recognizing/opening successfully?  Any ideas?

Share this post


Link to post
Share on other sites

I am on a mac btw - here is what my .m3u file looks like in TextMate 

SF3Track2.cue
SF3Track2.cue
SF3Track2.cue
SF3Track2.cue

I followed a guide that told me I needed to drag + drop the .cue files into TextEdit and delete everything but the file names (change .bin to .cue) - this process worked for another multidisc game on PS1 but  not this time.  OpenEmu throws an error "The emulator could not load ROM".

Thanks for any ideas/suggestions!

Share this post


Link to post
Share on other sites

Is this format compatible with Mednafen?  When I drag the .cue to the Mednafen exe, I get an error saying no such file or directory.

 

Actually nevermind :)  I found Yaba Sanshiro works just great with the .iso!

Edited by SewerUrchin
Update

Share this post


Link to post
Share on other sites

I am sorry if I seem like a complete dumbass here, but I can't seem to get this to work using Mednafen. 

After un-zipping, I get three files for each game:  one iso file, one cue file, and one Track2.bin file.

Dragging the cue file to mednafen just results in an error:

Mednafen(1.21.3) Error

Error opening CD: Error opening rile
"C:\Users\..\Games\Sega Saturn\SF3.ISO": No such file or directory

 

I have a number of other Saturn roms, and they only have one cue file and a number of bin files.  None of them have iso files.  With the other games, I just drag the cue file to the Mednafen.exe and everything starts up fine.

Anyone know what I can do here?  And thank you in advance for all of your help!  Sorry if the solution is obvious but I just can't get it.

Share this post


Link to post
Share on other sites

First thing I like to say is thank you Yukiko for doing fantastic job on english patched games runs with no problems at all and its nice to people take their own time to work on stuff like 

Share this post


Link to post
Share on other sites

I just got it to work with Mednafen. All you really need to do is rename the .iso and .bin file to the file names specified in the .cue file.

Basically, just do exactly what Youtuber Simply Austin does in this video:

 

Please login or register to see this link.

 

You just open the .cue file with Notepad. The file names specified by default in the .cue file for the .iso and .bin did not match the actual files names of the .iso and .bin files contained in the download. Just rename the files to match it should load right up.

The .cue file has this by default:

 

FILE "SF3.ISO" BINARY

TRACK 01 MODE1/2048

INDEX 01 00:00:00

FILE "SF3Track2.bin" BINARY

TRACK 02 AUDIO

PREGAP 00:02:00

INDEX 01 00:00:00

 

 

But just edit it to the following, for example, and just make sure the names of the actual .iso and .bin files match exactly:

 

FILE "Shining Force III - Scenario 3.ISO" BINARY

TRACK 01 MODE1/2048

INDEX 01 00:00:00

FILE "Shining Force III - Scenario 3 Track2.bin" BINARY

TRACK 02 AUDIO

PREGAP 00:02:00

INDEX 01 00:00:00

Share this post


Link to post
Share on other sites

Hi any chance you could provide the updated V19 ver. please?

Please login or register to see this link.

Share this post


Link to post
Share on other sites

Join the conversation

You can post now and register later. If you have an account, sign in now to post with your account.

Guest
Reply to this topic...

×   Pasted as rich text.   Paste as plain text instead

  Only 75 emoji are allowed.

×   Your link has been automatically embedded.   Display as a link instead

×   Your previous content has been restored.   Clear editor

×   You cannot paste images directly. Upload or insert images from URL.