Jump to content

nkcmo

Active members
  • Content Count

    2
  • Joined

  • Last visited

  • Points

    52 [ Donate ]

Community Reputation

0 Neutral

About nkcmo

  • Rank
    NGR N00bMuffin
  1. I just got it to work with Mednafen. All you really need to do is rename the .iso and .bin file to the file names specified in the .cue file. Basically, just do exactly what Youtuber Simply Austin does in this video: https://www.youtube.com/watch?v=wCthfiJSIH4 You just open the .cue file with Notepad. The file names specified by default in the .cue file for the .iso and .bin did not match the actual files names of the .iso and .bin files contained in the download. Just rename the files to match it should load right up. The .cue file has this by default: FILE "SF3.ISO" BINARY TRACK 01 MODE1/2048 INDEX 01 00:00:00 FILE "SF3Track2.bin" BINARY TRACK 02 AUDIO PREGAP 00:02:00 INDEX 01 00:00:00 But just edit it to the following, for example, and just make sure the names of the actual .iso and .bin files match exactly: FILE "Shining Force III - Scenario 3.ISO" BINARY TRACK 01 MODE1/2048 INDEX 01 00:00:00 FILE "Shining Force III - Scenario 3 Track2.bin" BINARY TRACK 02 AUDIO PREGAP 00:02:00 INDEX 01 00:00:00
  2. I am sorry if I seem like a complete dumbass here, but I can't seem to get this to work using Mednafen. After un-zipping, I get three files for each game: one iso file, one cue file, and one Track2.bin file. Dragging the cue file to mednafen just results in an error: Mednafen(1.21.3) Error Error opening CD: Error opening rile "C:\Users\..\Games\Sega Saturn\SF3.ISO": No such file or directory I have a number of other Saturn roms, and they only have one cue file and a number of bin files. None of them have iso files. With the other games, I just drag the cue file to the Mednafen.exe and everything starts up fine. Anyone know what I can do here? And thank you in advance for all of your help! Sorry if the solution is obvious but I just can't get it.
×
×
  • Create New...